#TITLE:Secret;
#SUBTITLE:;
#ARTIST:Jay Chou;
#TITLETRANSLIT:Secret;
#SUBTITLETRANSLIT:;
#ARTISTTRANSLIT:Chau Kiet Luan;
#CREDIT:;
#BANNER:secret-bn.png;
#BACKGROUND:secret-bg.jpg;
#LYRICSPATH:;
#CDTITLE:cdtitle.png;
#MUSIC:Secret.mp3;
#OFFSET:0.000;
#SAMPLESTART:31.928;
#SAMPLELENGTH:20.000;
#SELECTABLE:YES;
#BPMS:0.000=127.800;
#STOPS:;
#BGCHANGES:;
// cache tags:
#FIRSTBEAT:0.000;
#LASTBEAT:171.167;
#SONGFILENAME:Songs/Music V.I.P ^_^/Secret/Secret.sm;
#HASMUSIC:1;
#HASBANNER:1;
#MUSICLENGTH:84.511;
// end cache tags

//---------------dance-solo - ----------------
#NOTES:
     dance-solo:
     :
     Hard:
     16:
     1.000,1.000,1.000,0.024,1.000,693.000,216.000,2.000,0.000,24.000:
100001
000100
001000
010000
100000
000001
000100
001000
,
010000
010010
010000
101000
000100
000010
000010
100010
,
100100
101000
100001
001010
100000
000010
100010
000110
,
001000
010010
010001
001010
000100
010010
010010
000100
,
001000
000000
010100
000010
010100
000000
000100
000000
010010
000000
001000
000000
000010
000000
000010
000000
,
010010
100100
101000
110000
010011
000010
001000
100010
,
010100
000110
000010
000001
010100
100000
010010
001010
,
100010
000100
100010
000001
100100
000010
000100
100100
,
010100
001010
000001
000100
100010
000010
000100
100010
,
010001
001100
010010
100001
000110
000001
000001
010010
,
100100
000000
010100
001000
100100
000000
010010
000000
000101
000000
010100
000000
100010
000000
100100
000000
,
010001
000010
011001
100010
100100
010001
100100
010010
,
100001
000000
010010
000000
000001
000000
100010
000000
110010
000000
000010
000000
010010
000000
001100
010000
,
100100
010000
001001
100000
010001
001000
100010
010000
001010
100000
001100
010000
100100
001000
010001
100000
,
001001
010000
001100
100000
010100
000000
000010
100000
010010
000000
000001
000000
000001
000000
100100
010000
,
001100
100000
010010
001000
100010
010000
100001
000100
001001
010000
100010
001000
010010
001000
100100
010000
,
001100
100000
001001
010000
100001
000000
010010
000000
010010
000000
100100
000000
010100
000000
000000
000000
,
111111
000000
000000
000000
000000
000000
011110
000000
000000
000000
000000
000000
101101
000000
000000
000000
000000
000000
110100
000010
000100
000021
000100
001000
,
110131
000000
000000
000000
000000
000000
100100
000010
000100
000021
000100
001000
110131
000000
000000
000000
000000
000000
100001
000100
000010
000100
001000
000100
,
110010
000100
001000
000010
000100
001000
100100
000010
000100
000001
000100
000010
110100
001000
000100
000010
000100
001000
100100
000010
000100
000001
000100
000010
,
110100
001000
000100
000010
000100
001000
100100
000010
000100
000001
000100
000010
110100
001000
000100
000010
000100
001000
100100
000010
000100
000001
000100
000010
,
110100
001000
000100
000010
000100
001000
100101
010000
000100
000001
010000
000010
001100
000001
100000
000100
001000
000001
100010
000100
000010
010000
000100
001000
,
100010
010000
000001
001000
000010
100000
010100
001000
000001
100000
000100
001000
000011
010000
000100
001000
000001
010000
100100
001000
000001
010000
000100
001000
,
100010
000000
010000
000000
000100
000000
000001
100000
000100
010010
001000
010000
000001
001000
010000
100010
001000
000001
010000
100000
000001
001100
010000
000001
,
100000
000010
010000
001100
000001
000010
100000
010000
000001
001100
000010
010000
000010
100000
000100
001010
010000
000010
100000
000001
001000
000110
010000
000001
,
100100
000001
010000
001010
100000
000001
010000
000010
001000
010100
000001
100000
000010
010000
000010
001100
010000
000001
000010
100000
000000
010010
001000
000010
,
010000
000001
000010
100100
000001
000100
001000
000100
001000
010100
000001
000100
001000
000001
100000
010001
000010
000100
000010
000100
000010
010100
100000
001000
,
000001
000010
010000
100010
001000
000100
000001
000010
001000
100010
010000
000001
000100
000010
001000
100010
010000
000100
001000
000001
100000
001010
010000
000100
,
101000
000100
000010
001100
010000
000001
100010
010000
000100
010010
000100
000001
101000
010000
000010
100100
000010
010000
001001
100000
000100
000010
000100
010000
,
000001
000000
000100
110000
000010
000000
000100
000000
001000
000000
000100
000000
000010
000000
000100
110000
001000
000000
000010
000000
000100
000000
001000
000000
000100
000000
000010
100000
000100
000000
000001
000000
000100
000000
000010
000000
000100
000000
001000
110000
000100
000000
000010
000000
000100
000000
001000
000000
,
000100
000000
000010
100000
000100
000000
000001
000000
000100
000000
000010
000000
000100
000000
001000
110000
000100
000000
000010
000000
000100
000000
001000
000000
000100
000000
000010
100000
000100
000000
000001
000000
000100
000000
000010
000000
000100
000000
001000
110000
000100
000000
000010
000000
000100
000000
001000
000000
,
000100
000000
000010
100000
000100
000000
000001
000000
000100
000000
000010
000000
000100
000000
001000
110000
000100
000000
000010
000000
000100
000000
001000
000000
000001
000000
000100
100000
000010
000000
000100
000000
001000
000000
000100
000000
110010
000000
000100
000000
001000
000000
000010
000000
000100
000000
001000
000000
,
100100
000010
000100
000001
000100
000010
110100
001000
000100
000010
000100
001000
100100
000010
000100
000001
000100
000010
110100
001000
000100
000010
000100
001000
,
110100
001000
000100
000010
000100
001000
100101
010000
000100
000001
010000
000010
001100
000001
100000
000100
001000
000001
100010
000100
000010
010000
000100
001000
,
100010
010000
000001
001000
000010
100000
010100
001000
000001
100000
000100
001000
000011
010000
000100
001000
000001
010000
100100
001000
000001
010000
000100
001000
,
100101
010000
000100
000001
010000
000010
001100
000001
100000
000100
001000
000001
100010
000100
000010
010000
000100
001000
100010
010000
000001
001000
000010
100000
,
010100
001000
000001
100000
000100
001000
000011
010000
000100
001000
000001
010000
100100
001000
000001
010000
000100
001000
100010
000000
000000
010000
000000
000000
,
101011
000000
000000
000000
000000
000000
000000
000000
000000
100010
000000
000000
000101
000000
000000
000000
000000
000000
000000
000000
000000
010010
000000
000000
010010
000000
000000
000000
000000
000000
000000
000000
100100
000000
000000
000000
000000
000000
000000
010010
000000
000000
000000
000000
000000
000000
000000
000000
,
100010
010100
000000
000000
100010
001100
000000
010001
000000
000000
100010
000000
000000
101000
010010
000000
,
000000
001100
100001
000000
000000
010010
000000
100100
000000
000000
010100
001010
000000
000000
011000
100010
,
100010
000000
000000
100100
000000
000000
110010
000001
001000
100010
000100
001000
100011
000100
001000
100001
000100
000010
101000
000010
000001
101000
000010
000001
,
100100
001000
000001
100010
000100
000010
100001
001000
000010
100100
001000
000001
100010
000100
000010
100001
000100
001000
100001
000100
000010
100001
000100
001000
,
100001
000010
000100
101000
000100
000010
100100
000000
000000
000000
000000
000000
000000
000000
000000
000000
000000
000000
000000
100001
000000
000000
000000
000000
;

//---------------dance-single - ----------------
#NOTES:
     dance-single:
     :
     Hard:
     8:
     1.000,1.000,1.000,0.000,1.000,633.000,155.000,0.000,0.000,15.000:
1000
0001
0010
0100
1000
0010
0001
0010
,
0100
0100
0100
1010
0001
0001
0010
1000
,
1001
1010
1000
0110
1000
0001
1000
0001
,
0010
0100
0100
1010
0001
0100
0100
0001
,
0010
0000
0101
1000
0101
0000
0001
0000
1100
0000
0010
0000
1000
0000
0001
0000
,
0100
1001
1010
1100
0101
0100
0010
1000
,
0101
0001
0001
1000
0101
1000
0100
0010
,
1000
0001
1000
0000
1001
0000
0001
1001
,
0101
0010
1000
0001
0110
1000
0001
1000
,
0100
0011
0100
1000
1001
1000
0001
0100
,
1001
0000
0101
0010
1001
0000
0100
0000
0001
0000
0101
0000
1000
0000
1001
0000
,
0100
0001
0110
1000
1001
0100
1001
0100
,
1000
0000
0100
0000
0011
0000
1000
0000
1100
0000
0100
0000
0001
0000
0011
0100
,
1001
0100
0011
1000
0101
0010
1001
0100
0011
1000
0011
0100
1001
0010
0101
1000
,
0011
0100
0011
1000
0101
0000
0001
1000
0101
0000
0001
0000
0001
0000
1001
0100
,
0011
1000
0101
0010
1001
0100
1001
0100
0011
0100
1001
0010
0101
0010
1001
0100
,
0011
1000
0011
0100
1001
0000
0101
0000
0101
0000
1001
0000
0101
0000
0000
0000
,
1111
0000
0000
0000
0000
0000
0111
0000
0000
0000
0000
0000
1011
0000
0000
0000
0000
0000
1101
0000
0001
0000
0001
0010
,
1101
0000
0000
0000
0000
0000
1001
0000
0001
0000
0001
0010
1101
0000
0000
0000
0000
0000
1001
0000
0001
0000
0001
0010
,
1101
0000
0001
0000
0001
0010
1001
0000
0001
0000
0001
0010
1101
0000
0001
0000
0001
0010
1001
0000
0001
0000
0001
0010
,
1101
0000
0001
0000
0001
0010
1001
0000
0001
0000
0001
0010
1101
0000
0001
0000
0001
0010
1001
0000
0001
0000
0001
0010
,
1101
0000
0001
0000
0001
0010
1001
0100
0001
1000
0100
1000
0011
0100
1000
0001
0010
0100
1000
0001
0010
0100
0001
0010
,
1000
0100
0001
0010
0100
1000
0101
0010
0100
1000
0001
0010
1000
0100
0001
0010
1000
0100
1001
0010
1000
0100
0001
0010
,
1000
0000
0100
0000
0001
0000
0100
1000
0001
0100
0010
0100
0001
0010
0100
1001
0010
0001
0100
0010
1000
0011
0100
0000
,
1001
0000
0100
0011
1000
0100
1000
0100
1000
0011
1000
0100
1000
0100
0010
1001
0100
0000
1000
0001
0010
1001
0010
0100
,
1000
0100
1000
0101
1000
0100
0010
0001
0010
1100
0001
1000
0100
0010
0001
1010
0100
0010
1000
0100
0010
0101
1000
0100
,
0010
1000
0100
1001
0010
0100
1000
0001
0010
1001
0100
0001
1000
0000
0000
1001
0010
0001
0100
0001
0010
0101
1000
0010
,
0100
0001
0100
1001
0010
0001
0100
1000
0010
1001
0100
0010
1000
0100
0010
1001
0100
0001
0100
0001
1000
0011
0100
0001
,
1000
0001
1000
0011
0100
0010
1000
0100
0001
1010
0001
0100
1000
0100
0001
0110
1000
0100
0010
1000
0001
1010
0001
0100
,
0001
0000
0000
1000
0001
0000
0000
0000
0001
0000
0000
0000
0001
0000
0010
1100
0001
0000
0000
0000
0001
0000
0000
0000
0001
0000
0010
1000
0001
0000
0000
0000
0001
0000
0000
0000
0001
0000
0010
1100
0001
0000
0000
0000
0001
0000
0000
0000
,
0001
0000
0010
1000
0001
0000
0000
0000
0001
0000
0000
0000
0001
0000
0010
1100
0001
0000
0000
0000
0001
0000
0000
0000
0001
0000
0010
1000
0001
0000
0000
0000
0001
0000
0000
0000
0001
0000
0010
1100
0001
0000
0000
0000
0001
0000
0000
0000
,
0001
0000
0010
1000
0001
0000
0000
0000
0001
0000
0000
0000
0001
0000
0010
1100
0001
0000
0000
0000
0001
0000
0000
0000
0001
0000
0010
1000
0001
0000
0000
0000
0001
0000
0010
0000
1101
0000
0000
0000
0001
0000
0000
0000
0001
0000
0010
0000
,
1001
0000
0001
0000
0001
0010
1101
0000
0001
0000
0001
0010
1001
0000
0001
0000
0001
0010
1101
0000
0001
0000
0001
0010
,
1101
0000
0001
0000
0001
0010
1001
0100
0001
1000
0100
1000
0011
0100
1000
0001
0010
0100
1000
0001
0010
0100
0001
0010
,
1000
0100
0001
0010
0001
1000
0101
0010
0100
1000
0001
0010
1000
0100
0001
0010
1000
0100
1001
0010
1000
0100
0001
0010
,
1001
0100
0001
1000
0100
1000
0011
0100
1000
0001
0010
0100
1000
0001
0010
0100
0001
0010
1000
0100
0001
0010
0001
1000
,
0101
0010
0100
1000
0001
0010
1000
0100
0001
0010
1000
0100
1001
0010
1000
0100
0001
0010
1000
0100
0001
0100
0001
0100
,
1010
0000
0000
0000
0000
0000
0000
0000
0000
1001
0000
0000
1001
0000
0000
0000
0000
0000
0000
0000
0000
0110
0000
0000
0110
0000
0000
0000
0000
0000
0000
0000
1001
0000
0000
0000
0000
0000
0000
0110
0000
0000
0000
0000
0000
0000
0000
0000
,
1010
0101
0000
0000
1100
1100
0000
0110
0000
0000
1001
0000
0000
1010
0101
0000
,
0000
0011
0011
0000
0000
0110
0000
1001
0000
0000
0101
1010
0000
0000
0110
1001
,
1001
0000
0000
1001
0000
0000
1100
0001
0010
1000
0001
0010
1000
0001
0010
1000
0001
0100
1010
0001
0100
1010
0001
0100
,
1001
0010
0100
1000
0001
0100
1000
0010
0100
1001
0010
0100
1000
0001
0100
1000
0001
0010
1000
0001
0100
1000
0001
0010
,
1000
0100
0001
1010
0001
0100
1001
0000
0000
0000
0000
0000
0000
0000
0000
0000
0000
0000
0000
0110
0000
0000
0000
0000
;
